Bug 211320 - kaboodle: does not play ogg !
kaboodle: does not play ogg !
Product: Fedora
Classification: Fedora
Component: kdemultimedia (Show other bugs)
All Linux
medium Severity medium
: ---
: ---
Assigned To: Ngo Than
Depends On:
  Show dependency treegraph
Reported: 2006-10-18 13:19 EDT by Chitlesh GOORAH
Modified: 2007-11-30 17:11 EST (History)
0 users

See Also:
Fixed In Version:
Doc Type: Bug Fix
Doc Text:
Story Points: ---
Clone Of:
Last Closed: 2007-08-05 20:05:49 EDT
Type: ---
Regression: ---
Mount Type: ---
Documentation: ---
Verified Versions:
Category: ---
oVirt Team: ---
RHEL 7.3 requirements from Atomic Host:
Cloudforms Team: ---

Attachments (Terms of Use)

  None (edit)
Description Chitlesh GOORAH 2006-10-18 13:19:36 EDT
Description of problem:
I've just converted a .avi to .ogg
chitlesh(Desktop)[1]$./ffmpeg2theora-0.16.linux.bin TiestoLIVEDamsquareA.avi -o
Input #0, avi, from 'TiestoLIVEDamsquareA.avi':
  Duration: 00:30:38.9, start: 0.000000, bitrate: 1013 kb/s
  Stream #0.0, 30.00 fps(r): Video: mpeg4, yuv420p, 480x360
  Stream #0.1: Audio: mp3, 44100 Hz, stereo, 128 kb/s
  Pixel Aspect Ratio: 1.00/1   Frame Aspect Ratio: 1.33/1
  Resize: 480x360
      0:30:38.57 audio: 75kbps video: 908kbps

I can't read the .ogg file on kaboodle.
Also I can't preview the .ogg file while right clicking on it and click on

However the same .ogg can be opened with mplayer and totem successfully.

Version-Release number of selected component (if applicable):

How reproducible:

Additional info:
chitlesh(Desktop)[1]$du -h TiestoLIVEDamsquareA.ogg
183M    TiestoLIVEDamsquareA.ogg
chitlesh(Desktop)[1]$du -h TiestoLIVEDamsquareA.avi
223M    TiestoLIVEDamsquareA.avi
Comment 1 Chitlesh GOORAH 2007-08-05 20:05:49 EDT
I don't use kaboodle now. So I'm closing this bug.

Note You need to log in before you can comment on or make changes to this bug.