Bug 211320 - kaboodle: does not play ogg !
Summary: kaboodle: does not play ogg !
Status: CLOSED NOTABUG
Alias: None
Product: Fedora
Classification: Fedora
Component: kdemultimedia (Show other bugs)
(Show other bugs)
Version: 5
Hardware: All Linux
medium
medium
Target Milestone: ---
Assignee: Ngo Than
QA Contact:
URL:
Whiteboard:
Keywords:
Depends On:
Blocks:
TreeView+ depends on / blocked
 
Reported: 2006-10-18 17:19 UTC by Chitlesh GOORAH
Modified: 2007-11-30 22:11 UTC (History)
0 users

Fixed In Version:
Doc Type: Bug Fix
Doc Text:
Story Points: ---
Clone Of:
Environment:
Last Closed: 2007-08-06 00:05:49 UTC
Type: ---
Regression: ---
Mount Type: ---
Documentation: ---
CRM:
Verified Versions:
Category: ---
oVirt Team: ---
RHEL 7.3 requirements from Atomic Host:
Cloudforms Team: ---


Attachments (Terms of Use)

Description Chitlesh GOORAH 2006-10-18 17:19:36 UTC
Description of problem:
I've just converted a .avi to .ogg
chitlesh(Desktop)[1]$./ffmpeg2theora-0.16.linux.bin TiestoLIVEDamsquareA.avi -o
TiestoLIVEDamsquareA.ogg
Input #0, avi, from 'TiestoLIVEDamsquareA.avi':
  Duration: 00:30:38.9, start: 0.000000, bitrate: 1013 kb/s
  Stream #0.0, 30.00 fps(r): Video: mpeg4, yuv420p, 480x360
  Stream #0.1: Audio: mp3, 44100 Hz, stereo, 128 kb/s
  Pixel Aspect Ratio: 1.00/1   Frame Aspect Ratio: 1.33/1
  Resize: 480x360
      0:30:38.57 audio: 75kbps video: 908kbps

I can't read the .ogg file on kaboodle.
Also I can't preview the .ogg file while right clicking on it and click on
properties.

However the same .ogg can be opened with mplayer and totem successfully.


Version-Release number of selected component (if applicable):
kdemultimedia-3.5.4-0.1.fc5

How reproducible:
everytime

Additional info:
chitlesh(Desktop)[1]$du -h TiestoLIVEDamsquareA.ogg
183M    TiestoLIVEDamsquareA.ogg
chitlesh(Desktop)[1]$du -h TiestoLIVEDamsquareA.avi
223M    TiestoLIVEDamsquareA.avi

Comment 1 Chitlesh GOORAH 2007-08-06 00:05:49 UTC
I don't use kaboodle now. So I'm closing this bug.


Note You need to log in before you can comment on or make changes to this bug.