Bug 986574 - shotwell-video-thumbnailer requests invalid output format; Imported video files have no thumbnail
shotwell-video-thumbnailer requests invalid output format; Imported video fil...
Status: CLOSED ERRATA
Product: Fedora
Classification: Fedora
Component: shotwell (Show other bugs)
19
Unspecified Unspecified
unspecified Severity unspecified
: ---
: ---
Assigned To: Matthias Clasen
Fedora Extras Quality Assurance
:
Depends On:
Blocks:
  Show dependency treegraph
 
Reported: 2013-07-20 16:06 EDT by David Woodhouse
Modified: 2013-09-29 20:26 EDT (History)
7 users (show)

See Also:
Fixed In Version: shotwell-0.14.1-1.fc19.1
Doc Type: Bug Fix
Doc Text:
Story Points: ---
Clone Of:
Environment:
Last Closed: 2013-09-29 20:26:09 EDT
Type: Bug
Regression: ---
Mount Type: ---
Documentation: ---
CRM:
Verified Versions:
Category: ---
oVirt Team: ---
RHEL 7.3 requirements from Atomic Host:
Cloudforms Team: ---


Attachments (Terms of Use)
Output from 'shotwell-video-thumbnailer --gst-debug="*:5" 20130720_200301.mp4; (5.34 MB, text/plain)
2013-07-22 11:36 EDT, David Woodhouse
no flags Details

  None (edit)
Description David Woodhouse 2013-07-20 16:06:02 EDT
When shotwell imports .mp4 video files from my camera, I just get a film reel as a thumbnail, instead of a still from the video.

This doesn't appear to be because of a missing codec; all the relevant codecs should be installed — and if they weren't, then I should be seeing PackageKit trying to install them and/or some kind of error/warning message if it fails.
Comment 1 David Woodhouse 2013-07-20 16:08:03 EDT
[dwmw2@shinybook 20]$ shotwell-video-thumbnailer 20130720_202046.mp4
Failed to play the file: couldn't get state.
Comment 2 David Woodhouse 2013-07-20 16:13:49 EDT
FWIW totem-video-thumbnailer works on these files.

Input #0, mov,mp4,m4a,3gp,3g2,mj2, from '20130720_200301.mp4':
  Metadata:
    major_brand     : isom
    minor_version   : 0
    compatible_brands: isom3gp4
    creation_time   : 2013-07-20 19:03:32
  Duration: 00:00:30.39, start: 0.000000, bitrate: 17128 kb/s
    Stream #0:0(eng): Video: h264 (High) (avc1 / 0x31637661), yuv420p, 1920x1080, 17002 kb/s, 29.97 fps, 30 tbr, 90k tbn, 180k tbc
    Metadata:
      rotate          : 90
      creation_time   : 2013-07-20 19:03:32
      handler_name    : VideoHandle
    Stream #0:1(eng): Audio: aac (mp4a / 0x6134706D), 48000 Hz, stereo, fltp, 121 kb/s
    Metadata:
      creation_time   : 2013-07-20 19:03:32
      handler_name    : SoundHandle
Comment 3 Thomas Moschny 2013-07-22 10:49:38 EDT
Duplicate of bug 891342?
Comment 4 David Woodhouse 2013-07-22 11:14:21 EDT
Comparing comment 1 here with https://bugzilla.redhat.com/show_bug.cgi?id=891342#c1 there, I'd suggest not.
Comment 5 David Woodhouse 2013-07-22 11:36:59 EDT
Created attachment 776947 [details]
Output from 'shotwell-video-thumbnailer --gst-debug="*:5" 20130720_200301.mp4;
Comment 6 David Woodhouse 2013-07-22 11:38:47 EDT
http://redmine.yorba.org/issues/7258
Comment 7 David Woodhouse 2013-07-24 16:50:20 EDT
Per discussion in the upstream bug, this appears to be a gstreamer problem.
Comment 8 David Woodhouse 2013-09-17 23:45:05 EDT
Not a gstreamer bug. Fix at https://bugzilla.gnome.org/show_bug.cgi?id=708034#c4
Comment 9 David Woodhouse 2013-09-20 01:21:11 EDT
Fixed scratch build at http://koji.fedoraproject.org/koji/taskinfo?taskID=5959460
Comment 10 David Woodhouse 2013-09-20 12:40:49 EDT
The fix is http://git.yorba.org/cgit.cgi/shotwell/commit/?id=0dc2ce3c

Any chance of this in a F19 update please? I'm happy enough to do it myself it you prefer.
Comment 11 Fedora Update System 2013-09-24 19:02:15 EDT
shotwell-0.14.1-1.fc19.1 has been submitted as an update for Fedora 19.
https://admin.fedoraproject.org/updates/shotwell-0.14.1-1.fc19.1
Comment 12 Fedora Update System 2013-09-26 02:04:58 EDT
Package shotwell-0.14.1-1.fc19.1:
* should fix your issue,
* was pushed to the Fedora 19 testing repository,
* should be available at your local mirror within two days.
Update it with:
# su -c 'yum update --enablerepo=updates-testing shotwell-0.14.1-1.fc19.1'
as soon as you are able to.
Please go to the following url:
https://admin.fedoraproject.org/updates/FEDORA-2013-17613/shotwell-0.14.1-1.fc19.1
then log in and leave karma (feedback).
Comment 13 Fedora Update System 2013-09-29 20:26:09 EDT
shotwell-0.14.1-1.fc19.1 has been pushed to the Fedora 19 stable repository.  If problems still persist, please make note of it in this bug report.

Note You need to log in before you can comment on or make changes to this bug.